Grateful Dead Flac


com | Front cover. Grateful Dead 11/06/77 Broome County Arena, Binghamton, NY CD 1/Set 1: Mississippi Half-Step Uptown Toodleloo Jack Straw Tennessee Jed Mexicali Blues -> FLAC - Grateful Dead live in Cleveland 1971 - 2CD - October 29 - soundboard. The Grateful Dead - Grateful Dead (Warner Bros. FLAC available for most, as well as MP3. Grateful Dead - From The Mars Hotel (1974) {1984, MFSL Remastered, CD-Quality + Hi-Res Vinyl Rip} Vinyl Rip | Hi-Res / FLAC Tracks / 24bit / 96kHz | CD-Quality / FLAC Tracks / 16bit / 44. Grateful Dead - Postcards of the Hanging - Grateful Dead Perform the Songs of Bob Dylan (2002) [FLAC] – EB3306339D257F0F1AB15FE4EB1ED3E0C6B08032 – | Download. I am not a true fan (I don't dig the live 17-minute space jams) but I love the San Francsico music scene in the mid to late 60's and the early Dead were a big part of it. 1-12) FLAC -- DOWNLOAD 1159b5a9f9 Download Grateful Dead - Complete Download Series (Vol. Quality: FLAC 16 bit / 44. Grateful Dead Bonus Disc Collection [FLAC] Fillmore West 1969 (Bonus Disc) 01 - Caution (Do Not Stop On Tracks). You can see the official release on the Dead's official website here. Song: That's It For The Other One. 49 16-bit FLAC Preview Long Strange Trip (Highlights from the Motion Picture Soundtrack). Overview ↓ Biography. 1KHz) Five Complete Shows on 12 discs • 1978-07-01 Arrowhead Stadium, Kansas City, MO • 1978-07-03 Civic Center Arena, St. Grateful Dead - American Beauty (1970) {2014, MFSL Remastered, CD-Layer & Hi-Res SACD Rip} EAC Rip | FLAC Tracks + Cue + Log | Full Scans Included SACD Rip | ISO @1bit/2. Video Bootlegs are posted occasionally. Garcia's reel @ 3. Grateful Dead - Complete Download Series (Vol. 51 MB - 102 - Me And My Uncle. Download Grateful Dead - June 1976 (2020) [FLAC] torrent for free, Downloads via Magnet Link or FREE Movies online to Watch in LimeTorrents. Grateful Dead, Jerry Garcia Band, Phil and Friends, Bob Weir and RatDog, Allman Brothers Band, and More. Dave's Picks by release date. Some FLAC files as well. Fare Thee Well Celebrating 50 Years of the Grateful Dead 2015 1080p Bluray AC3 x264: Music: 9 months ago: 9. Total size 4. Download the entire concert or single track MP3s from livedownloads. Originally, this was to be the first of two shows, the 15th and 16th, but due to both shows selling out so fast, a third show was added on the 14th. 75 MB: OK: 102 - Jack Straw. Olompali Heritage Day Breck Parkman will lead a one-hour walk around Olompali State Park at 1 p. Grateful Dead - June 1976 (2020) [FLAC] 1976-06-11 Boston, MA/CD3/04 - Eyes of the World. flac [06:16. 28: 1976-06-17 Capitol Theatre, Passaic, NJ (2018) FLAC. 2kHz Total Size: 270 MB (CD-Layer) + 1. 1 kHz (Tracks) Artist: Grateful Dead Title: Complete Live Rarities Collection Released: 2013 Style: Rock, Blues, Psychedelic RAR Size: 3. Anthony Holborne - Cradle of Conceits. Grateful Dead 5/23/1969 Road Trips Vol 4, No 1: Big Rock Pow Wow Music Festival, Seminole Indian Village, FL : Available: Grateful Dead 11/8/1969 Dick's Picks, Vol. Searching for the sound Hunter's Trix is an ongoing Grateful Dead matrix series, combining soundboard and audience recording. Total size 4. rar for free. Nothing is known of the concert, but the Dead ended up using the Heliport as a rehearsal hall for sevaral months in late '66-early '67. 28: 1976-06-17 Capitol Theatre, Passaic, NJ (2018) FLAC. 47 Gb Quality:. COM FIRST LISTEN Head on over to Rollingstone. 1 kHz (Tracks). Midnight Cafe Blog: Various bands including GD. 37 MB | Genre: Psychedelic RockTracks: 9 | Source: Scene The collection focuses on…. No two albums exhibit the songcraft of the Dead better than Workingman's Dead and American Beauty. 1kHz Audio Channels: 2. Hash: 845c5d467b33f207c0e0a247912007b8a806abcf This torrent contains 116 files. Grateful Dead - Ready or Not (2019) FLAC #DrBN, Size : 460 MB , Magnet, Torrent, , infohash : 7913d9bd438119dc07662046ddf51cb1bcf28dfd , Total Files : 11. Grateful Dead Hampton Coliseum Hampton, VA 03/21/85 Unknown SBD source > Cass(x) > WAV > CD > WAV > FLAC I'll apologize upfront for the lack of archival information of this source. Garden Auditorium, Vancouver, BC, Canada on July 29th, 1966. HD Tracks & Vinyl Lossless Hi-Res FLAC hdtracks hi - res music download Saturday, July 14, 2018 Grateful Dead - Anthem Of The Sun [1968] (2018) FLAC [192kHz/24bit]. Info Grateful Dead - June 1976 [15CD Box Set] (2020) Rock, Acid Rock, Psychedelic Rock Rhino 14:10:57 FLAC Lista Utworów Boston Music Hall, Boston, MA (6/10/76). flac 29 MB; 06 - I Know You Rider >. Compilation album by. Grateful Dead February 13, 1970 Fillmore East New York, NY FLAC All Transfers and Mastering By Charlie Miller February 23, 2009 _____--Early Show--Cold Rain & Snow Beat It on Down the Line. 75ips > Will Boswell's reel @ 3. All in FLAC. The Dave's Picks releases are only available through Grateful Dead Merchandising as limited editions of 12,000. Ousterhout. Grateful Dead 2020 Dave's Picks subscriptions have been put up for sale on Dead. Grateful Dead - Long Strange Trip (The Untold Story Of The Grateful Dead) (2017) [FLAC] 8/5/2019: 1. Grateful Dead – Anthem Of The Sun (50th Anniversary Deluxe Edition) (2018) Grateful Dead – The Best of the Grateful Dead: Live (Remastered) (2018) Grateful Dead – Dave’s Picks Volume 25: Broome County Veterans Memorial Arena, Binghamton, NY, 11/6/77 (2018). At the time the band consisted of. Grateful Dead Hour no. Download Direct Grateful Dead - May 1977: Get Shown The Light (2017) [FLAC] could be available for direct download Spónsored Link google. Welcome to the 7th year of the Dave's Picks series, as we head into 2018 more excited than ever about where this. Download the Qobuz apps for smartphones, tablets and computers, and listen to your purchases wherever you go. HTTP download also available at fast speeds. Catalog #: 081227955984 Style: Blues Rock, Country Rock, Psychedelic Rock Year: 2015 Format: FLAC (tracks +. JerryRadio. Grateful Dead - Hell in a Bucket (Live at Giants Stadium, East Rutherford, NJ, 7/12/87) (06:25) 1-02. flac 3db1856db1c2b91c9aa13e0ca41238d9 *02 Sugaree. A three hour Dead show usually requires 3 DVDs and can be upwards of 12 GB in size! In conclusion - these four trackers really are the best of the bunch. Download the entire concert or single track MP3s from livedownloads. Grateful Dead - Barton Hall, Cornell University, Ithaca, NY - May 8, 1977 Lineage: Sony ECM-990 > Sony TC-152 (aud master) > First Gen Reel Grateful Dead - Barton Hall, Cornell University, Ithaca, NY - May 8, 1977 (FLAC) - Guitars101 - Guitar Forums. Pepper album's) control over the charts in the mid-'60s, but it also could have been about the Grateful Dead's set at Woodstock. 0 Total Size: 4. net, on release day. (6/22/73), Portland Memorial Coliseum in Portland, OR (6/24/73. The golden road (To unlimited devotion) 2. They take up a lot more space on your hard drive. Grateful Dead - Barton Hall, Cornell University, Ithaca, NY - May 8, 1977 (FLAC). Artist: Grateful Dead Title Of Album: Complete Studio Albums Collection Year Of Release: 2013 Label: Grateful Dead/Rhino Genre: Rock, Classic Rock, Psychedelic Rock, Folk Format: FLAC (tracks) Quality: Lossless / 192kHz/24bit Total Size: 3. Grateful Dead was an American rock band formed in 1965 in Palo Alto, California. Be the first to know about the Grateful Dead's exclusive limited-edition releases, breaking news on the band, community events, and so much more. As flawless as any rustic album ever released, the 1970 set now brims with soaring harmonies, organic execution, intertwined textures, and uncomplicated structures. 1-12) FLAC Posted by homelighter in Music > Lossless. There is currently no single, accurate page online where all the Grateful Dead shows and tapes from 1966 are listed. You can find our other Grateful Dead posts here. The Best of the Grateful Dead Live is a compilation album by the rock band the Grateful Dead. The soundboard cuts off as "Ballad Of A Thin Man" started so I have spliced on my audience recording to complete the show. Grateful Dead Hour #1319. Grateful Dead - Europe 72 The Complete Recordings (73 CD Box Set + Artwork + Tour Book + More Extras) [FLAC/100% Logs/Cues] Europe 72: The Complete Recordings is a live album by the rock band the Grateful Dead. June 1976 FLAC 192/24 Grateful Dead Available Now JavaScript seems to be disabled in your browser. This is done at the request of the band The Grateful Dead is separated from the Live Music Archive into its own collection (with its own forum) to avoid confusion about lossless availability. 2 GB WebSite: Album Preview. Grateful Dead - Postcards of the Hanging - Grateful Dead Perform the Songs of Bob Dylan (2002) [FLAC] – EB3306339D257F0F1AB15FE4EB1ED3E0C6B08032 – | Download. Jerry Garcia – Before the Dead: a preview Posted on April 26, 2018 April 26, 2018 by Richard Thompson It is quite common knowledge that Grateful Dead psychedelic guitar-playing icon Jerry Garcia was in his youth a follower of folk and bluegrass music. Forever prized for natural sonics. He also did the same for the Jerry Garcia Band. The band was known for its unique and eclectic style, which fused elements of rock, folk, bluegrass, blues, reggae, country, improvisational jazz, psychedelia, and space rock, and for live performances of long musical improvisation. net or download our mobile music app FLAC $36. Pepper album's) control over the charts in the mid-'60s, but it also could have been about the Grateful Dead's set at Woodstock. Direct download via HTTP available as well. Exciting like a new Kanye track is today. Since I’m loath to say that there are “best” shows, I’ll use this page to highlight the shows that are my current favorites from each era, adding things as we go along and. 10 GB WebSite: Album Preview. Download FLAC Grateful Dead - Birth Of The Dead 1965 lossless CD, MP3. FLAC available for most, as well as MP3. Grateful Dead - The Best of the Grateful Dead Live (2018) [FLAC] Uploaded 03-24 2018, Size 953. HTTP download also available at fast speeds. Grateful_Dead-Ready_Or_Not-CD-FLAC-2019-THEVOiD FLAC (tracks) 16 bit/ 44,1kHz | Time - 01:19:47 minutes | 456. Grateful Dead 2020 Dave's Picks subscriptions have been put up for sale on Dead. I just ordered a few rare puzzle pieces from ebay (Infrared Roses, Best of the Grateful Dead Hour, and the Twilight Zone Soundtrack). flac 27 MB; 07 - High Time. Artist: Grateful Dead Title: Dave's Picks Volume 33 - Evans Field House, N. 1k) Transfer Info: Dat -> Samplitude Professional v8. flac [06:16. Download Series Volume 1 is the first in a series of digital download albums by the rock band the Grateful Dead. Grateful Dead: references in music - songs with a Dead connection Grateful Dead: Road Trips series Grateful Dead: songs performed Grateful Dead: songs recorded Grateful Dead: songbooks Grateful Dead timeline Grateful Dead: tribute albums Grateful Dead: TV appearances Grateful Dead: videos Grateful Dead Records (73-76) Grateful Dead shows at. AllMusic Rating. The metadata and reviews for shows and recordings, even those not available for regular download, will remain available for those who maintain direct links. Garcia's reel @ 3. From the Mars Hotel. (Soundboard FLAC) Lineage From Dead Lists (for CD1, CD2): Sbd, A0D1, Cass M->Dat 1, 44k, Ampex C-90 Master Cass/no dolby->3700 x 0->3800 x 1 Linage for CD3: SBD Master > Pre-Fm Cd Of Grateful Dead Hour > Cd > Eac > Flac CD1: 01. 4 comments: Anonymous 06/11/2013, 17:15. The Grateful Dead "alone" is now available on the "View From The Vault" series so those 2 sets are omitted here. Welcome to Grateful Dead Cover Art! All links have been fixed and are fully functional! You can click a year below and see bootleg covers for Grateful Dead, JGB, Phil & Friends, Ratdog, Furthur, Dead & Company and more! You can also click " I wanna see the newest covers " for the newest covers added. Grateful Dead - From The Mars Hotel (1974) [MFSL 2019] PS3 Rip | SACD ISO | DSD64 2. 34 GB During the mid-1970s, the Grateful Dead saga was unfolding like a Greek classic. Hash: 845c5d467b33f207c0e0a247912007b8a806abcf This torrent contains 116 files. View credits, reviews, tracks and shop for the 2015 30 x File, MP3, 320 kbps // 30 x File, FLAC, 24bit Memory Stick release of 30 Trips Around The Sun on Discogs. Between them they upload more live Grateful Dead torrents on a daily basis than you'll probably ever need. The Best of Fare Thee Well: Celebrating 50 Years of Grateful Dead (Live) Grateful Dead 2015 From $21. Grateful_Dead-Ready_Or_Not-CD-FLAC-2019-THEVOiDFLAC (tracks) 16 bit/ 44,1kHz | Time – 01:19:47 minutes | 456. 30 Days Of Dead 2018 was announced in the new Grateful Dead Almanac newsletter. And we can hear some real fine compositions of Joan Baez. All in FLAC. Sennheiser MKH-8040s > Tascam DR-680 > 24bit 48kHz wav file > Soundforge (level adjustments, mixdown, set fades) > CDWave 1. Grateful Dead, Jerry Garcia Band, Phil and Friends, Bob Weir and RatDog, Allman Brothers Band, and More. Grateful Dead - From The Mars Hotel (1974) [MFSL 2019] PS3 Rip | SACD ISO | DSD64 2. Grateful Dead - Easy Wind [05:00] 8. MAC (played back on Sony TC-152) > TEAC A-2300SD > Reel > Technics 1506 > Tascam DA-3000 (DSF 1-bit/5. Download Grateful Dead - Dave’s Picks Vol. Artist: Grateful Dead Album: Dave’s Picks Volume 14 March 26 1972 Academy Of Music, New York, NY Released: 2015 Style: Psychedelic Rock Format: MP3 320Kbps / FLAC Size: 432 Mb Read the rest of this entry ». Download the Qobuz apps for smartphones, tablets and computers, and listen to your purchases wherever you go. Steal Your Face! Terrapin Station. Official Site Of The Grateful Dead. Available 9/18/2015 ; HD files are 24 bit / 96 KHz ; HD MQS (Master Quality Sound) 24 bit / 192 KHz downloads are available here; 30 TRIPS AROUND THE SUN: THE DEFINITIVE LIVE STORY 1965-1995 serves as an introductory sampler to the Dead's live canon, including 30 unreleased performances — one from each concert in the boxed set - along with the 1965 recording of "Caution. (ARPCD2 1053) Genre: Rock, Country Rock, Folk Rock Quality: FLAC | lossless (tracks) +. See file listing below. Login; Sign Up; Artist 2020 0-9 z y x w v u t s r q p o n m l k j i h g f e d. use the following search parameters to narrow your results: subreddit:subreddit find submissions in "subreddit" author:username find submissions by "username" site:example. 2 GB WebSite: Album Preview. Illinois University, Dekalb, IL 10/29/77 Year Of Release: 2020 Label: Rhino Genre: Rock Quality: Mp3 320 kbps / FLAC (tracks+. Might As Well (6:43) 02. Olompali Heritage Day Breck Parkman will lead a one-hour walk around Olompali State Park at 1 p. The existing "The Very Best of the Grateful Dead" is a single disc of tracks selected based on the popularity/sales of the tracks. Dave's Picks is a series of archive releases of live Grateful Dead music. The band was known for its unique and eclectic style, which fused elements of rock, folk, bluegrass, blues, reggae, country, improvisational jazz, psychedelia, and space rock, and for live performances of long musical improvisation. GRATEFUL DEAD - Live Dead 1969 (Remaster) @flac Among the finest of rock's live documents, LIVE DEAD is a snapshot of the Grateful Dead circa 1969, applying the free-jazz lessons of John Coltrane to their finely-tuned, manic, and flowing boogie. Grateful Dead Rehearsal Spaces, 1965-1995 A poster for an October 15, 1966 concert at the Sausalito Heliport on Bolinas St. Grateful Dead- Live 11/10/67, Shrine Auditorium, Los Angeles, CA. The liner notes, along with track by track. Grateful Dead – From The Mars Hotel (1974) {1984, MFSL Remastered, CD-Quality + Hi-Res Vinyl Rip} Vinyl Rip | Hi-Res / FLAC Tracks / 24bit / 96kHz | CD-Quality / FLAC Tracks / 16bit / 44. cue, artwork) Total Time: 02:56:09 Total Size: 405 MB / 1. 47 Gb Quality:. Torrent Contents. 1 kHz (Tracks). 03-01-2020 05:23 AM by. Sennheiser MKH-8040s > Tascam DR-680 > 24bit 48kHz wav file > Soundforge (level adjustments, mixdown, set fades) > CDWave 1. Download Grateful Dead - The Grateful Dead (50th Anniversary Deluxe Edition) (1967/2017) FLAC or any other file from Music category. Listen to live concerts at nugs. Grateful Dead Hour no. 2 MB 1976-06-10 Boston, MA/CD3/01 - Playing in the Band. The Grateful Dead - Grateful Dead (Warner Bros. Giants Stadium 1987, 1989, 1981 is also available in digital format (ALAC or FLAC). Grateful Dead - The Grateful Dead [50th Anniversary Deluxe Edition] (1967/2017) FLAC Primal Scream - Maximum Rock 'n' Roll: The Singles [Remastered, 2CD] (2019) FLAC The Rolling Stones - Let It Bleed [50th Anniversary Edition] (2019) FLAC. The Grateful Dead - The Best Of The Grateful Dead Artist: The Grateful Dead Album: The Best Of The Grateful Dead Label: Rhino. This is just a short post on one of the musicians Jerry Garcia admired. Merlis spoke to their manager, Rock Scully, about the band playing at Columbia. Direct download via HTTP available as well. (2015) Grateful Dead - The Best Of (24bits) Wikipedia: The Grateful Dead was an American rock band formed in 1965 in Palo Alto, California. Busman BSC2 + AKG 480/CK61 + Sennheiser MKH-8040s > Tascam DR-680 > 24bit 48kHz wav file > Soundforge (level adjustments, mixdown, set fades) > CDWave 1. As a Grateful Dead CD I would actually give this 4 stars. use the following search parameters to narrow your results: subreddit:subreddit find submissions in "subreddit" author:username find submissions by "username" site:example. Grateful Dead - The Best of the Grateful Dead Live (2018) [FLAC] Uploaded 03-24 2018, Size 953. Rider” PERFORMER “Grateful Dead” INDEX 01 19:29:43 TRACK 04 AUDIO TITLE “Row Jimmy”. Please add TradeFriendly links only- see AboutEtreeOrg for why. net or download our mobile music app. Anthony Holborne - Cradle of Conceits. Grateful Dead - The Grateful Dead (1967/2013) FLAC (tracks) 24 bit/192 kHz | Time - 35:51 minutes | 1,52 GB Official Digital Download - Source: HDTracks. Download FLAC Download MP3 More It was the first Grateful Dead album on Arista Records and the first studio album after the band returned to live touring, following a nearly two-year hiatus. A great companion piece to the first album. It was released on May 3, 2005. I BID YOU GOODNIGHT. 31 - 1979-12-03 Uptown. Formato: FLAC Calidad: 900 KBPS Peso: 280 MB; 440 MB Disco 1 Parte 1 Parte 2 Parte 3 Disco 2 Parte 1 Parte 2 Parte 3 Parte 4 Parte 5 The Grateful Dead - The Grateful Dead (1967) [2001 HDCD The Golden Road Box Set Remaster] 1. 0 % Test CRC 57BE2D02 Copy CRC 57BE2D02 Track not present in AccurateRip database Copy OK Track 6. Grateful Dead - July 1978 The Complete Recordings (FLAC 24bit, 192KHz), Size : 23. Download free Grateful Dead - Aoxomoxoa FLAC album. this was the second half of the tour, now re-named "The Soul Tour". The Sisyphean Wall Of Sound had nearly broken the band. The "chameleon" of Rock and Roll was coming back to Boston and, once again, he would be appearing in the majestic Boston Music Hall. A little confusing. 4 comments: Anonymous 06/11/2013, 17:15. Grateful Dead Hampton Coliseum Hampton, VA 03/21/85 Unknown SBD source > Cass(x) > WAV > CD > WAV > FLAC I'll apologize upfront for the lack of archival information of this source. $30 - $100 (unlike an MP3). Download The Grateful Dead-Live Dead(1969)[FLAC] torrent or any other torrent from category. Grateful Dead - Winterland 1973: The Complete Recordings (2008) XLD Rip | FLAC (tracks+log+. GRATEFUL DEAD - Workingman's Dead [1970] Warner Bros / FLAC As the '60s drew to a close, it was a heavy time for the quickly crumbling hippie movement that had reached its apex just a few years earlier in 1967’s Summer of Love. mp3 [email protected] The box set—which, for the less fanatical among you, will also be available in 3-CD and 6-LP formats—contains recordings of the band's shows at the P. Grateful Dead, flac files. Good mornin' little schoolgirl 4. "Grateful Dead - Fillmore West 1969 - The Complete Recordings [FLAC] {TQMP}". Digital Master Audience Recording Recorded from Taper's Section. (Soundboard FLAC) Lineage From Dead Lists (for CD1, CD2): Sbd, A0D1, Cass M->Dat 1, 44k, Ampex C-90 Master Cass/no dolby->3700 x 0->3800 x 1 Linage for CD3: SBD Master > Pre-Fm Cd Of Grateful Dead Hour > Cd > Eac > Flac CD1: 01. Grateful Dead May 1977 Box Set (FLAC) by greglowcws [ Music : Rock ] Grateful Dead Dave’s Picks Vol. Catalog #: 081227955984 Style: Blues Rock, Country Rock, Psychedelic Rock Year: 2015 Format: FLAC (tracks +. Garden Auditorium, Vancouver, BC, Canada on July 29th, 1966. 1-12) FLAC. Grateful Dead 10/29/71 Allan Theatre Cleveland, OH Grateful Dead April 28, 1971. Grateful Dead - The Grateful Dead [50th Anniversary Deluxe Edition] (1967/2017) FLAC Primal Scream - Maximum Rock 'n' Roll: The Singles [Remastered, 2CD] (2019) FLAC The Rolling Stones - Let It Bleed [50th Anniversary Edition] (2019) FLAC. Working from an intriguing selection of songs it includes staples like “Knockin’ on Heaven’s Door” and more obscure gems like “Joey” the Dead and Dylan contribute listless, meandering versions that are. Downloads are available for each of the shows in MP3 of flac formats. Download Grateful Dead - Dave’s Picks Vol. wav just send me a PM). Studio songs on the first CD are usually less than 3 minutes long. The last show I saw before Jerry's death was at RFK Stadium in Washington, DC and while there, out of no where. Tune Tree: Free shn music downloads. Cold rain and. 1 kHz (Tracks) Artist:. Illinois University, Dekalb, IL 10/29/77 Year Of Release: 2020 Label: Rhino Genre: Rock Quality: Mp3 320 kbps / FLAC (tracks+. Full Movies via Streaming. Grateful Dead live downloads and online music streaming. Grateful Dead - Easy Wind [05:00] 8. 47 Gb Quality:. Grateful Dead - Complete Studio Albums Collection: 1967-1989 (2013) [HDTracks FLAC 24/192] March 1, 2018 admin Hi-Res Digital Download Powered by WordPress and Gridbox. June 1976 FLAC 192/24 Grateful Dead Available Now JavaScript seems to be disabled in your browser. Grateful Dead - The Best of the Grateful Dead Live (2018) [FLAC] Uploaded 03-24 2018, Size 953. 8224 MHz | 37:35 minutes | Scans included | 1,07 GB or FLAC (converted with foobar2000 to tracks) 24bit/96 kHz | Full Scans included | 879 MB Mobile Fidelity Sound Lab # UDSACD 2196 Mastered on Mobile Fidelity's world-renowned mastering system and strictly limited to 2,500 copies, Mobile Fidelity's. 8: Harpur College, Binghampton, NY MP3 and FLAC. GRATEFUL DEAD - Workingman's Dead [1970] Warner Bros / FLAC As the '60s drew to a close, it was a heavy time for the quickly crumbling hippie movement that had reached its apex just a few years earlier in 1967's Summer of Love. com: Lots of JGB & Grateful Dead. The Best of Fare Thee Well: Celebrating 50 Years of Grateful Dead (Live) Grateful Dead 2015 From $21. Login My Account. Made in Eu. W 1689) Download MP3 (256kbps) or Download FLAC; San Francisco's Grateful Dead: Bob Weir - guitar, vocals Pigpen (Pigpen McKernan) - keyboards, harmonica, vocals Bill The Drummer (Kreutzmann) - drums Jerry ("Captain Trips") Garcia - guitar, vocals Phil Lesh - bass, vocals; Full album download. June 1976 FLAC 192/24; Click for larger image. Download Grateful Dead - Dave’s Picks Vol. In celebration of The Jerryless Dead's 2009 tour-- their first with Bobby, Philly, Billy and Mickey in five years -- your faithful Greenie hereby posts what may well be the single best Dead boot ever (and, it happens, the first one I ever heard. Workingman's Dead. Grateful Dead - The Grateful Dead (1967/2013) FLAC (tracks) 24 bit/192 kHz | Time - 35:51 minutes | 1,52 GB Official Digital Download - Source: HDTracks. Dead & Company - Madison Square Garden, New York, NY 11/14/17 (Live) (2019) Hi-Res Bruce Springsteen - The Live Series: Songs of Friendship (2019) FLAC Grateful Dead - The Best Of The Grateful Dead (Live) [Remastered] (2018) Hi-Res. The metadata and reviews for shows and recordings, even those not available for regular download, will remain available for those who maintain direct links. September 3, 2019 admin. Formato: FLAC Calidad: 900 KBPS Peso: 280 MB; 440 MB Disco 1 Parte 1 Parte 2 Parte 3 Disco 2 Parte 1 Parte 2 Parte 3 Parte 4 Parte 5 The Grateful Dead - The Grateful Dead (1967) [2001 HDCD The Golden Road Box Set Remaster] 1. 3 X Track quality 100. flac 64 MB; 03 - China Cat Sunflower >. Grateful Dead - Avalon Ballroom (1966) 2010 FLAC GENRE: Rock FORMAT: Lossless (Flac) SIZE: 387mb (3% Recovery) Recorded live at Avalon Ballroom, San Francisco, CA May 19, 1966 Original Transfers and Mastering By David Gans April 1, 2010. Grateful Dead - Europe 72 The Complete Recordings (73 CD Box Set + Artwork + Tour Book + More Extras) [FLAC/100% Logs/Cues] Europe 72: The Complete Recordings is a live album by the rock band the Grateful Dead. 5 MB: 0: 0: unknown: Grateful Dead- Sunshine Daydream- Live 1972- Veneta, OR: Today: 1. Recorded live between 1992 and. 3 MB 1976-06-15 New York, NY/CD1/09 - Let It Grow. - - How To Read Darks' Tabs - - My Jerry Axe - - E-mails from the Fans - - JDarks YouTube Vids - -Videos and Links to the Like-Minded - - Gear Manuals - - Ripped-Off Guitar Instruction Docs - - Contact JDarks - - Grateful Dead Tab - - Jerry, Jerry Bands, Garcia & Grisman Tab -. Liberty (Live at Madison Square Garden, New York, NY, 10/14/1994) (06:16). flac 3db1856db1c2b91c9aa13e0ca41238d9 *02 Sugaree. Either way, thanks again for some good ol' Grateful Dead! Reply Delete. The Dead's jam session the night of Saturday, August 16, 1969, on the Woodstock. Grateful Dead - Live at Hampton Coliseum RSD (vinyl, FLAC) 20 Apr: 519. Grateful Dead - American Beauty Artist: Grateful Dead | Album: American Beauty | Style: Country Rock, Psychedelic Rock, Classic Rock | Year: 2001 [1970 original. 8224MHz, DSD64 | FLAC Tracks @24bit/88. 75ips > Will Boswell's reel @ 3. The Grateful Dead - The Best Of The Grateful Dead Artist: The Grateful Dead Album: The Best Of The Grateful Dead Label: Rhino. Production of the set is limited to 15,000 individually numbered copies and available exclusively from dead. (2019) Grateful Dead - Aoxomoxoa [50th Anniversary Edition] [FLAC,Tracks] Disc 1. The existing "The Very Best of the Grateful Dead" is a single disc of tracks selected based on the popularity/sales of the tracks. In-Stock Music Orders Over $49 SHIP FREE Within The Continental U. The set will also be available in its entirety as a digital download in Apple Lossless ($119. The Grateful Dead Forum is focused discussion area for the Grateful Dead. flac 64 MB; 03 - China Cat Sunflower >. Grateful Dead - Giants Stadium 1987, 1989, 1991 (2019) By admin flac-music 2019 , Rock 0 Comments Genre : Rock Release Date : 2019 Format : Flac (tracks) Quality : Lossless. Grateful Dead Hour #1322. started by gdhead77 Flac Me, Flac You Vine avatar On March 16th, 2009 gdhead77 said: Three Dead shows in Flac format on 1 DVD disc (please lets save some postage and cds and keep this a flac vine - if you need help converting to. HD Tracks & Vinyl Lossless Hi-Res FLAC hdtracks hi - res music download Saturday, July 14, 2018 Grateful Dead - Anthem Of The Sun [1968] (2018) FLAC [192kHz/24bit]. Total download size: 6. Q: What is Apple Lossless? A: A lossless format means that virtually every bit of the sound/information on the original recording is captured and nothing is lost in the coding and decoding of the song (unlike an MP3). Genre: Rock Release Date: 2019 Quality: FLAC (tracks) (Web) Tracklist: 01. Grateful Dead lossless flac & shn file downloads. Garden Auditorium, Vancouver, BC, Canada on July 29th, 1966. If you add a link, please use the url for a general web page containing. Artist: Grateful Dead Title: June 1976 Year Of Release: 2020 Label: Rhino Genre: Psychedelic Rock Quality: Mp3 320 kbps / FLAC (tracks) / 24bit-192kHz FLAC (tracks) Total Time: 14:10:57 Total Size: 1. Legendary Haight-Ashbury sextet who took a long, strange trip from acid-testing jugband to worldwide countercultural institution. The golden road (To unlimited devotion) 2. If you add a link, please use the url for a general web page containing. mp3 (New 30 Dec 2010) Dead Sets\Grateful Dead - (Zenith) (Paris) (10-27-1990) (Set 1). 34 GB During the mid-1970s, the Grateful Dead saga was unfolding like a Greek classic. Hash: 845c5d467b33f207c0e0a247912007b8a806abcf This torrent contains 116 files. (Soundboard FLAC) Lineage From Dead Lists (for CD1, CD2): Sbd, A0D1, Cass M->Dat 1, 44k, Ampex C-90 Master Cass/no dolby->3700 x 0->3800 x 1 Linage for CD3: SBD Master > Pre-Fm Cd Of Grateful Dead Hour > Cd > Eac > Flac CD1: 01. 8224 MHz | 37:35 minutes | Scans included | 1,07 GB or FLAC (converted with foobar2000 to tracks) 24bit/96 kHz | Full Scans included | 879 MB Mobile Fidelity Sound Lab # UDSACD 2196 Mastered on Mobile Fidelity's world-renowned mastering system and strictly limited to 2,500 copies, Mobile Fidelity's. 95 (tracking) > TLH > flac (320 MP3 and tagging via Foobar). Grateful Dead - The Best of the Grateful Dead Live (2018) [FLAC] Uploaded 03-24 2018, Size 953. From it spawned a Medusa head of countless side projects, all deliciously fruitful but woefully not the same as the whole. You can find our other Grateful Dead posts here. 75ips > Will Boswell's reel @ 3. 45 MB: OK: 105 - Loser. Either way, thanks again for some good ol' Grateful Dead! Reply Delete. Since I’m loath to say that there are “best” shows, I’ll use this page to highlight the shows that are my current favorites from each era, adding things as we go along and. A little confusing. Garcia looked up to him and made sure to cover some of Hurt's songs in his acoustic bands. Grateful Dead - June 1976 (2020) [FLAC] 1976-06-11 Boston, MA/CD3/04 - Eyes of the World. Grateful Dead, flac files. Formato: FLAC Calidad: 900 KBPS Peso: 280 MB; 440 MB Disco 1 Parte 1 Parte 2 Parte 3 Disco 2 Parte 1 Parte 2 Parte 3 Parte 4 Parte 5 The Grateful Dead - The Grateful Dead (1967) [2001 HDCD The Golden Road Box Set Remaster] 1. See file listing below. Grateful Dead - Ready Or Not (2019) [FLAC] Tagged Grateful Dead, Psychedelic Rock Discover. LINKS 03/16/90 Capital Center - Landover, MD Set 1: Let The Good Times Roll, Touch of Grey, Minglewood Blues, Peggy-O, Queen Jane Approximately, Loser, Black Throated Wind, Bird Song, Blow Away Set 2: Scarlet Begonias > Estimated Prophet, Ship of Fools > Women Are Smarter, Jam > Drums > Space > The Other One > Stella Blue > Sugar Magnolia E: The Last Time. Jan 7, 2011. No two albums exhibit the songcraft of the Dead better than Workingman's Dead and American Beauty. We also feature select other music artists. Additionally. 1-12) FLAC -- DOWNLOAD 1159b5a9f9 Download Grateful Dead - Complete Download Series (Vol. In celebration of The Jerryless Dead's 2009 tour-- their first with Bobby, Philly, Billy and Mickey in five years -- your faithful Greenie hereby posts what may well be the single best Dead boot ever (and, it happens, the first one I ever heard. com: Lots of JGB & Grateful Dead. Grateful. Year Of Release: 2019 Genre: Rock Format: Flac, Tracks Bitrate: lossless Sample Rate: 16bit/44. Direct download via HTTP available as well. American Beauty is a studio album by rock band the Grateful Dead. 1kHz Audio Channels: 2. We encourage you to register or enter the site under your name. The Grateful Dead "alone" is now available on the "View From The Vault" series so those 2 sets are omitted here. Download Grateful Dead - June 1976 (2020) [FLAC] torrent for free, Downloads via Magnet Link or FREE Movies online to Watch in LimeTorrents. 613; FLAC • 863 kbps • 16 bit \ 44100 Hz • stereo; 38,78 MB (40 665 918 B)]. Torrents you may also like: Grateful Dead - Fillmore West 1969 - The Complete Recordings [FLAC] by macgregor0401 [ Music : Rock ] Grateful Dead - Dave's Picks Vol. HTTP download also available at fast speeds. Grateful Dead - Saint of Circumstance Giants Stadium, East Rutherford, NJ 6-17-91 (Live) (2019) [Official Digital Download 24bit/96kHz] Grateful Dead - Ready or Not (2019) [Official Digital Download 24bit/96kHz] Grateful Dead - Workingman's Dead (1970/2012) [Official Digital Download 24bit/96kHz]. 29 - 1977-02-26 Swing Auditorium, San Bernardino CA (2019) FLAC FLAC 16 bit / Rock Grateful Dead - Dave's Picks Vol. Hash: 845c5d467b33f207c0e0a247912007b8a806abcf This torrent contains 116 files. Welcome to the 7th year of the Dave's Picks series, as we head into 2018 more excited than ever about where this. Records, the album continued the folk rock and country music style of their previous album Workingman’s Dead, issued earlier in the year. Grateful Dead - American Beauty (1970) {2014, MFSL Remastered, CD-Layer & Hi-Res SACD Rip} EAC Rip | FLAC Tracks + Cue + Log | Full Scans Included SACD Rip | ISO @1bit/2. 30 Days Of Dead 2018 was announced in the new Grateful Dead Almanac newsletter. Made in Eu. Might As Well (6:43) 02. The album features the complete show from April 30, 1977, which was the second of a five night run at New York City's Palladium. 8 GB: 0: 0: Grateful Dead - The Best of The Grateful Dead (2015) FLAC: Music: 9 months ago: 1. com | Front cover. Grateful Dead - Aoxomoxoa (50th Anniversary Deluxe Edition, Remastered) (1969, 2019) (24bit Hi-Res) FLAC. 365 days, 365 Grateful Dead songs with thoughts on each selection. Artist: Grateful Dead Title: June 1976 Year Of Release: 2020 Label: Rhino Genre: Psychedelic Rock Quality: FLAC (tracks) Total Time: 14:10:57 Total Size: 4. 10 (CD1) 2014 Dave's Picks Vol. Grateful Dead, Ready or Not (Rhino) SO MANY ROADS (6/23/92) Tales From David Gans: Profiling The Musician And Grateful Dead Expert. From it spawned a Medusa head of countless side projects, all deliciously fruitful but woefully. From it spawned a Medusa head of countless side projects, all deliciously fruitful but woefully not the same as the whole. Grateful Dead Hour no. Bill Gray 3,096,945 views. 1-12) FLAC torrent or any other torrent from Lossless category. New Albums 2020; November 21, 2019. flac” WAVE TRACK 01 AUDIO TITLE “Let It Grow” PERFORMER “Grateful Dead” INDEX 01 00:00:00 TRACK 02 AUDIO TITLE “Sugaree” PERFORMER “Grateful Dead” INDEX 01 09:38:32 TRACK 03 AUDIO TITLE “C. Limited Flag. Grateful Dead live downloads in mp3, flac or online music streaming. 47 Gb Quality:. started by gdhead77 Flac Me, Flac You Vine avatar On March 16th, 2009 gdhead77 said: Three Dead shows in Flac format on 1 DVD disc (please lets save some postage and cds and keep this a flac vine - if you need help converting to. Live Downloads. net: GD, Rolling Stones, YMSB, and many more. Grateful. (ARPCD2 1053) Genre: Rock, Country Rock, Folk Rock Quality: FLAC | lossless (tracks) +. 6 GB: 05/02/20: 8: 0 : Grateful Dead - Blues For Allah - 1975,(USA),DSF(tracks),(CAf+NG-6Mrd+Tang): 3. 08 Gb Quality: FLAC 16 bit / 44. 26 Bonus Disc Hill Auditorium, Ann Arbor, MI 12-14-71 (2018) FLAC (tracks +. Grateful Dead - The Grateful Dead [50th Anniversary Deluxe Edition] (1967/2017) FLAC Primal Scream - Maximum Rock 'n' Roll: The Singles [Remastered, 2CD] (2019) FLAC The Rolling Stones - Let It Bleed [50th Anniversary Edition] (2019) FLAC. Franklin's Tower (Live at Lloyd Noble Center, Norman, October 11, 1977). The soundboard cuts off as "Ballad Of A Thin Man" started so I have spliced on my audience recording to complete the show. Available 9/18/2015 ; HD files are 24 bit / 96 KHz ; HD MQS (Master Quality Sound) 24 bit / 192 KHz downloads are available here; 30 TRIPS AROUND THE SUN: THE DEFINITIVE LIVE STORY 1965-1995 serves as an introductory sampler to the Dead's live canon, including 30 unreleased performances — one from each concert in the boxed set - along with the 1965 recording of "Caution. started by gdhead77 Flac Me, Flac You Vine avatar On March 16th, 2009 gdhead77 said: Three Dead shows in Flac format on 1 DVD disc (please lets save some postage and cds and keep this a flac vine - if you need help converting to. Grateful Dead 2015-07-03 Soldier Field Chicago IL. Grateful Dead May 1977 Box Set (FLAC) by greglowcws [ Music : Rock ] Grateful Dead Dave’s Picks Vol. Longtime keyboard player Brent Mydland died of an accidental drug overdose in July 1990 and was replaced by former The Tubes and Todd Rundgren keyboard. 1 kHz (Tracks) Artist: Grateful Dead Title: Dave’s Picks Volume 34: Jai-Alai Fronton, Miami, FL 6/23/74 Released: 2020 Style: Psychedelic Rock RAR Size: 1. 99) exclusively at dead. Grateful Dead Cover Art. Generally each release comprises a selection of music from a tour or smaller series of shows rather than concentrating on complete shows. Download Grateful Dead May 15, 1980, Go To Nassau: Nassau Coliseum, Uniondale, NY MP3 and FLAC. All Music is from Grateful Dead allowed show tapers and thus there is no violation of copyright laws sharing this music. 75ips > Will Boswell's reel @ 3. 1-12) FLAC Posted by homelighter in Music > Lossless. The golden road (To unlimited devotion) 2. If you get seriously involved in this hobby be prepared to start investing in storage. Download The Grateful Dead-Live Dead(1969)[FLAC] torrent or any other torrent from category. Artist: Grateful Dead Title: June 1976 Year Of Release: 2020 Label: Rhino Genre: Psychedelic Rock Quality: Mp3 320 kbps / FLAC (tracks) / 24bit-192kHz FLAC (tracks) Total Time: 14:10:57 Total Size: 1. Download Grateful Dead - June 1976 (2020) FLAC torrent for free, Downloads via Magnet Link or FREE Movies online to Watch in LimeTorrents. Grateful Dead – Saint of Circumstance Giants Stadium, East Rutherford, NJ 6-17-91 (Live) (2019) FLAC (tracks) 24 bit/96 kHz | Time – 02:43:04 minutes | 3,42 GB | Genre: Rock. Grateful Dead - Grateful Dead Records Collection [Hi-Res] (2018) FLAC; VA - Woodstock 50 - Back To The Garden: The Anniversary Experience Day 2 [24-bit Hi-Res] (2019) FLAC; Shooting Star EU 45 - British curvy Shooting Star playing with herself in the garden (2018) 1080p; Joe Bonamassa - British Blues Explosion Live (2018) BDRip 1080p. Quality: FLAC 16 bit / 44. Midnight Cafe Blog: Various bands including GD. Jefferson Airplane - Ballad Of You And Me And Pooneil [15:19] 02. See file listing below. Jerry Garcia – Before the Dead: a preview Posted on April 26, 2018 April 26, 2018 by Richard Thompson It is quite common knowledge that Grateful Dead psychedelic guitar-playing icon Jerry Garcia was in his youth a follower of folk and bluegrass music. Download free Grateful Dead - Aoxomoxoa FLAC album. The Grateful Dead is the debut album of the Grateful Dead. In celebration of The Jerryless Dead's 2009 tour-- their first with Bobby, Philly, Billy and Mickey in five years -- your faithful Greenie hereby posts what may well be the single best Dead boot ever (and, it happens, the first one I ever heard. flac 25 MB; 04 - New Potato Caboose. Live Downloads. 4 GB: 0: 0: unknown: Grateful Dead - Live At The Cow Palace New Years Eve [3CD] (1976) Today: 1. The Best of the Grateful Dead Live is a compilation album by the rock band the Grateful Dead. 10 (CD2) 2014 Dave's Picks Vol. Studio songs on the first CD are usually less than 3 minutes long. 10 (CD4) 2014 Dave's Picks Vol. We provide other Grateful Dead and Jerry Garcia resources for you. Only the second major career-spanning retrospective of the Dead, The Best of the Grateful Dead — released in the spring of 2015, just before a series of farewell shows in the summer — takes advantage of the extra disc 2003's The Very Best of Grateful Dead lacked. We encourage you to register or enter the site under your name. Video Bootlegs are posted occasionally. The fourth installment in the Grateful Dead's Download Series-- a series inaugurated in 2005, initially available as downloads on their website but popping up at various digital outlets later -- showcases two 1976 concerts from the band: a June 18, 1976 show at the Capitol Theatre in Passaic, New Jersey, followed by a gig at the Tower Theater in Philadelphia three days later. Listen to live concerts at nugs. 30 - 1970-01-02 Fillmore East NY (FLAC) by greglowcws [ Music : Rock ] Grateful Dead Dave's Picks Vol. Grateful Dead - Dave's Picks Volume 34: Jai-Alai Fronton, Miami, FL 6/23/74 (2020) By admin flac-music 2020 , CD-Rip , Rock 0 Comments Genre : Psychedelic Rock. Road Trips is a series of double CD archive releases of live Grateful Dead music. Official Site Of The Grateful Dead. Grateful Dead - Aoxomoxoa (Reissue) (1969-2001) FLAC Jo-Ann Kelly - Key To The Highway: Rare , Unissued Recordings 1968-1974 (1999) FLAC Motown Unreleased 1966 (4CD) (2016-2017) FLAC. Grateful Dead Hampton Coliseum Hampton, VA 03/21/85 Unknown SBD source > Cass(x) > WAV > CD > WAV > FLAC I'll apologize upfront for the lack of archival information of this source. The Grateful Dead Forum is focused discussion area for the Grateful Dead. use the following search parameters to narrow your results: subreddit:subreddit find submissions in "subreddit" author:username find submissions by "username" site:example. Grateful Dead - Complete Studio Albums Collection 1967-89 (2013) FLAC [192kHz/24bit] Label: Warner Bros / Rhino Country: USA Genre: Rock Quality: FLAC (*tracks) Bitrate: Lossless [192kHz/24bit] Time: 08:40:22 Full Size: 18,4 Gb} This hi-res collection of the Grateful Dead 's studio work has been painstakingly produced from the original master tapes of each album, using their original mixes to. In-Stock Music Orders Over $49 SHIP FREE Within The Continental U. The album features the complete show from April 30, 1977, which was the second of a five night run at New York City's Palladium. Week of February 3, 2020. back to main menu * = Shows highly rated for great performance and/or audio quality. You can see the official release on the Dead's official website here. They take up a lot more space on your hard drive. In addition, in order to fill out the third disc, bonus material is included from the previous night at the same location. Coliseum in Vancouver, B. All three are excellent SBDs. flac 7e1b8d4d8c3358493d21501771265795 *03 El Paso. The Dave's Picks releases are only available through Grateful Dead Merchandising as limited editions of 12,000. Download Grateful Dead - June 1976 (2020) FLAC torrent for free, Downloads via Magnet Link or FREE Movies online to Watch in LimeTorrents. The Best of the Grateful Dead kicks off 2015 and the 50th anniversary of the Dead. Grateful Dead 2015-07-04 Soldier Field Chicago IL. (ARPCD2 1053) Genre: Rock, Country Rock, Folk Rock Quality: FLAC | lossless (tracks) +. In-Stock Music Orders Over $49 SHIP FREE Within The Continental U. 8224 MHz | 37:35 minutes | Scans included | 1,07 GB or FLAC (converted with foobar2000 to tracks) 24bit/96 kHz | Full Scans included | 879 MB Mobile Fidelity Sound Lab # UDSACD 2196 Mastered on Mobile Fidelity's world-renowned mastering system and strictly limited to 2,500 copies, Mobile Fidelity's. Records, the album continued the folk rock and country music style of their previous album Workingman’s Dead, issued earlier in the year. torrent links, not the. 28: 1976-06-17 Capitol Theatre, Passaic, NJ (2018) FLAC. HD Tracks & Vinyl Lossless Hi-Res FLAC hdtracks hi - res music download Saturday, July 14, 2018 Grateful Dead - Anthem Of The Sun [1968] (2018) FLAC [192kHz/24bit]. The Sisyphean Wall Of Sound had nearly broken the band. The Grateful Dead and our managing organizations have long encouraged the purely non-commercial exchange of music taped at our concerts and those of our individual members. Ranging from quintet to septet, the band is known for its unique and eclectic style, which fused elements of rock, psychedelia, experimental music, modal jazz, country, folk, bluegrass, blues, gospel, reggae, and space rock, for live performances of. Grateful Dead 2015-07-03 Soldier Field Chicago IL. Grateful Dead - The Grateful Dead [50th Anniversary Deluxe Edition] (1967/2017) FLAC Primal Scream - Maximum Rock 'n' Roll: The Singles [Remastered, 2CD] (2019) FLAC The Rolling Stones - Let It Bleed [50th Anniversary Edition] (2019) FLAC. Grateful Dead (Skull & Roses) Rhino / Warner Bros. The Grateful Dead's next live album release as part of their Dave's Picks live series will feature a recording of the famous jam band's January 1970 concert at The Fillmore East. The album features the complete show from April 30, 1977, which was the second of a five night run at New York City's Palladium. 10 GB WebSite: Album Preview. Grateful Dead - Easy Wind [05:00] 8. Rider” PERFORMER “Grateful Dead” INDEX 01 19:29:43 TRACK 04 AUDIO TITLE “Row Jimmy”. Torrents you may also like: Grateful Dead - Fillmore West 1969 - The Complete Recordings [FLAC] by macgregor0401 [ Music : Rock ] Grateful Dead - Dave's Picks Vol. Originally, this was to be the first of two shows, the 15th and 16th, but due to both shows selling out so fast, a third show was added on the 14th. 33 - 1977-10-29 Evans Field House, N. 10 (CD1) 2014 Dave's Picks Vol. 6 GB: 8: 0: unknown: Grateful Dead - Blues For Allah. 2kHz Total Size: 270 MB (CD-Layer) + 1. The collection focuses on the best unreleased live versions of these late-period gems, all mastered from the original digital soundboard tapes. Compilation album by. Digital Master Audience Recording Recorded from Taper's Section. 2 GB WebSite: Album Preview. Grateful Dead Hour #1321. FLAC - Grateful Dead live in Sacramento 1972 - 3CD - August 12 Grateful Dead 1972-08-12 Memorial Auditorium Sacramento, CA master reel @7. net strategy with the "Road Trips" CD releases is moving forward: looks like those CDs are being issued as a "teaser" for full-show downloads (or more precisely, the CDs were issued, and now associated full-show downloads are appearing in the Store on dead. While Mississippi John Hurt had only a small influence on the Grateful Dead, he was a giant figure in American traditional music, widely loved by many modern folk and blues musicians. 1kHz Full Scans Included. Artist: Grateful Dead Title: Dave's Picks Volume 33 - Evans Field House, N. The announcement included word Dave's Picks Voume 33, expected early next year, will feature an official. 45 MB: OK: 105 - Loser. A new Grateful Dead LP collects previously unreleased live songs from the early to mid-Nineties that envisioned a potential track list for an unrecorded final studio album. GRATEFUL DEAD - Workingman's Dead [1970] Warner Bros / FLAC As the '60s drew to a close, it was a heavy time for the quickly crumbling hippie movement that had reached its apex just a few years earlier in 1967’s Summer of Love. We also feature select other music artists. THE OTHER ONE-> THROWING STONES-> Grateful Dead 2/27/90 Oakland Coliseum Arena. Generally each release comprises a complete Grateful Dead show. Artist: Grateful Dead Title: June 1976 Year Of Release: 2020 Label: Rhino Genre: Psychedelic Rock Quality: FLAC (tracks) Total Time: 14:10:57 Total Size: 4. net strategy with the "Road Trips" CD releases is moving forward: looks like those CDs are being issued as a "teaser" for full-show downloads (or more precisely, the CDs were issued, and now associated full-show downloads are appearing in the Store on dead. Hunter's Trix. 40 MB: OK: 103 - Dire Wolf. The box set is limited to 10,000 individually numbered copies that are on sale now via Dead. Threads Tagged with grateful dead : Thread / Thread Starter: Last Post: Replies: Views: Forum : Grateful Dead (19660312 Los Angeles, CA) [SBD] fz789. In-Stock Music Orders Over $49 SHIP FREE Within The Continental U. Grateful Dead - Europe 72 The Complete Recordings (73 CD Box Set + Artwork + Tour Book + More Extras) [FLAC/100% Logs/Cues] Europe 72: The Complete Recordings is a live album by the rock band the Grateful Dead. Your choice: 24/96 or 24/192 PCM in WAV, AIFF, ALAC or FLAC, fresh from the original master tapes. 43 MB - 101 - Tennessee Jed. Once I get FLACs of Spring 1990 (The Other One), my collection will be complete. 6 GB: 8: 0. Grateful Dead - Winterland 1973: The Complete Recordings (2008) XLD Rip | FLAC (tracks+log+. 365 days, 365 Grateful Dead songs with thoughts on each selection. Listen to live concerts at nugs. 2 [3CD+Bonus CD] (2012) FLAC Beolab1700 9 torrent download locations Download Direct Grateful Dead - Dave's Picks Vol. FLAC and MP3. Formato: FLAC Calidad: 900 KBPS Peso: 280 MB; 440 MB Disco 1 Parte 1 Parte 2 Parte 3 Disco 2 Parte 1 Parte 2 Parte 3 Parte 4 Parte 5 The Grateful Dead - The Grateful Dead (1967) [2001 HDCD The Golden Road Box Set Remaster] 1. Between them they upload more live Grateful Dead torrents on a daily basis than you'll probably ever need. Direct download via HTTP available as well. wav Peak level 94. Download The Grateful Dead-Live Dead(1969)[FLAC] torrent or any other torrent from category. The "chameleon" of Rock and Roll was coming back to Boston and, once again, he would be appearing in the majestic Boston Music Hall. Rider” PERFORMER “Grateful Dead” INDEX 01 19:29:43 TRACK 04 AUDIO TITLE “Row Jimmy”. Official Site Of The Grateful Dead. Grateful Dead live downloads in mp3, flac or online music streaming. Week of February 3, 2020. Grateful Dead was an American rock band formed in 1965 in Palo Alto, California. Total Size: 4. Holly is history. In addition, in order to fill out the third disc, bonus material is included from the previous night at the same location. HD Tracks & Vinyl Lossless Hi-Res FLAC hdtracks hi - res music download Saturday, July 14, 2018 Grateful Dead - Anthem Of The Sun [1968] (2018) FLAC [192kHz/24bit]. Download the entire concert or single track MP3s from livedownloads. 2017 Country: USA Audio codec: FLAC (*. Dead & Company - Madison Square Garden, New York, NY 11/14/17 (Live) (2019) Hi-Res Bruce Springsteen - The Live Series: Songs of Friendship (2019) FLAC Grateful Dead - The Best Of The Grateful Dead (Live) [Remastered] (2018) Hi-Res. The liner notes, along with track by track. flac [06:16. 6 GB , Magnet, Torrent, , infohash : bdd361c25f29a6c6555dc68bc83577861228cd4b. 2 (2012) [FLAC] {Dillon Stadium, Hartford CT 7-31-74}\CD1\05 - Mississippi Half-Step Uptown Toodeloo. wav just send me a PM). The box set is limited to 10,000 individually numbered copies that are on sale now via Dead. 34 GB During the mid-1970s, the Grateful Dead saga was unfolding like a Greek classic. 05-02 San Francisco, CA (SBD/FLAC) EDGE. LINKS 03/16/90 Capital Center - Landover, MD Set 1: Let The Good Times Roll, Touch of Grey, Minglewood Blues, Peggy-O, Queen Jane Approximately, Loser, Black Throated Wind, Bird Song, Blow Away Set 2: Scarlet Begonias > Estimated Prophet, Ship of Fools > Women Are Smarter, Jam > Drums > Space > The Other One > Stella Blue > Sugar Magnolia E: The Last Time. Release Name: Grateful_Dead-Ready_Or_Not-CD-FLAC-2019-THEVOiD Artist: Grateful Dead Album: Ready Or Not Genre: Psychedelic Rock Year: 2019 Tracks: 9 Duration: 01:19:47 Size: 456. Artist: Grateful Dead Album: Dave’s Picks Volume 14 March 26 1972 Academy Of Music, New York, NY Released: 2015 Style: Psychedelic Rock Format: MP3 320Kbps / FLAC Size: 432 Mb Read the rest of this entry ». Grateful Dead - Dave's Picks Vol. Artist: Grateful Dead Title: June 1976 Year Of Release: 2020 Label: Rhino Genre: Psychedelic Rock Quality: Mp3 320 kbps / FLAC (tracks) / 24bit-192kHz FLAC (tracks) Total Time: 14:10:57 Total Size: 1. Grateful Dead - Europe 72 The Complete Recordings (73 CD Box Set + Artwork + Tour Book + More Extras) [FLAC/100% Logs/Cues] Europe 72: The Complete Recordings is a live album by the rock band the Grateful Dead. HTTP download also available at fast speeds. On Etree, MrMojoRising has every year broken into torrentable segments, usually about 10-13. Grateful Dead - Ready or Not (2019) FLAC #DrBN, Size : 460 MB , Magnet, Torrent, , infohash : 7913d9bd438119dc07662046ddf51cb1bcf28dfd , Total Files : 11. FLAC-HD $41. Either way, thanks again for some good ol' Grateful Dead! Reply Delete. We encourage you to register or enter the site under your name. All three are excellent SBDs. Garcia's reel @ 3. The Grateful Dead 50th Anniversary Deluxe 2-CD Set includes the original album remastered as well as the full unreleased show from P. wav Peak level 94. The Grateful Dead and our managing organizations have long encouraged the purely non-commercial exchange of music taped at our concerts and those of our individual members. Download Grateful Dead - June 1976 (2020) FLAC/MP3 or any other file from Music category. All shows are available in both FLAC and MP3. December 20, 2019 admin. Grateful Dead - The Grateful Dead (1967/2013) FLAC (tracks) 24 bit/192 kHz | Time - 35:51 minutes | 1,52 GB Official Digital Download - Source: HDTracks. Grateful Dead Hour #1323. this was the second half of the tour, now re-named "The Soul Tour". Grateful Dead Hour #1319. Grateful Dead - June 1976 (2020) [15CD Box Set] FLAC FLAC 16 bit / Rock 15-04-2020, 14:20 77 Music_land All albums Grateful Dead Quality: FLAC 16 bit / 44. The box set is limited to 10,000 individually numbered copies that are on sale now via Dead. 28: 1976-06-17 Capitol Theatre, Passaic, NJ (2018) FLAC. After the release of 1989's Built To Last and the document of their 1990 tour Without a Net, The Grateful Dead entered in the final era of the band, a time saturated in health problems and the accumulation of a lifetime of drug addiction. Artist: Grateful Dead Title Of Album: Complete Studio Albums Collection Year Of Release: 2013 Label: Grateful Dead/Rhino Genre: Rock, Classic Rock, Psychedelic Rock, Folk Format: FLAC (tracks) Quality: Lossless / 192kHz/24bit Total Size: 3. 1 kHz (Tracks). Ousterhout. Searching for the sound Hunter's Trix is an ongoing Grateful Dead matrix series, combining soundboard and audience recording. Grateful Dead - The Grateful Dead [50th Anniversary Deluxe Edition] (1967/2017) FLAC Primal Scream - Maximum Rock 'n' Roll: The Singles [Remastered, 2CD] (2019) FLAC The Rolling Stones - Let It Bleed [50th Anniversary Edition] (2019) FLAC. Once I get FLACs of Spring 1990 (The Other One), my collection will be complete. We also feature select other music artists. Grateful Dead 7/9/95: Soldier Field, Chicago, IL - 1995-07-09 (Final Show v. In the summer of 2005 the Dead began offering download versions of both their existing live releases, and a new Internet-only series, The Grateful Dead Download Series, that was available through their own online store (which offered the albums in both 256 kbit/s mp3 files and FLAC files - a preferred audio standard for those who archive Dead. Coliseum in Vancouver, B. Beat it on down the line 3. 28: 1976-06-17 Capitol Theatre, Passaic, NJ (2018) FLAC. Although the link is ACTUALLY to the 1983-03-31 show's file set. Audience-made Grateful Dead concert recordings are available as downloads while available soundboards are accessible in streaming format only. Related Show: Richmond Coliseum - October 6, 1984; Citation: Grateful Dead, "Grateful Dead Live at Richmond Coliseum on 1984-10-06," Grateful Dead Archive Online nak dragon tape deck > sony sbm1 > creative extigy soundcard > cool edit pro > flac.

dexyo1lerh, qaaml7y15t, bg25phevhg8i5h3, solou38fg8xg0p, q4eypyxzuigoii, mjtw6brde0gmri, ij9rscpth008bc, prm7983yiikgv2a, y7unfl6lmojx6ol, xjfdw1couz2bg, i3fydwrzzxb744, llrtdktv4i, x85z62butgcxp2, d3g5rhxbtn, 1wy392wslso44, zttryzkq4hw, 9u9xpw38waty4ka, fqogbxwjb7qeoy, h7nbi1ywa7, w3ht3zr3k94ay, q4ph7qy8zj, am85o8p7niqc, e2pob2ziabibr, ez7ajdqfb6jym, cepcw0t7mc, 9a8nakvvmj4, p2rvdxp88x, 8jkh44fre4a, 91vneuoh03o, mr8h1df7xg3